#TITLE:Makar's Prayer;
#SUBTITLE:Zelda The Wind Waker;
#ARTIST:Konji Kondo;
#TITLETRANSLIT:;
#SUBTITLETRANSLIT:;
#ARTISTTRANSLIT:;
#CREDIT:;
#BANNER:makar-ba.png;
#BACKGROUND:makar-bg.jpg;
#LYRICSPATH:;
#CDTITLE:mus1c.png;
#MUSIC:38 - Makar's Prayer.mp3;
#OFFSET:0.000;
#SAMPLESTART:6.000;
#SAMPLELENGTH:12.000;
#SELECTABLE:YES;
#BPMS:0.000=118.060;
#STOPS:;
#BGCHANGES:;
// cache tags:
#FIRSTBEAT:0.500;
#LASTBEAT:56.167;
#SONGFILENAME:Songs/nhac/Makar's Prayer/Makar.sm;
#HASMUSIC:1;
#HASBANNER:1;
#MUSICLENGTH:31.190;
// end cache tags

//---------------dance-single - ----------------
#NOTES:
     dance-single:
     :
     Hard:
     10:
     0.728,0.653,0.609,0.962,1.000,110.000,19.000,30.000,0.000,2.000:
0000
0000
0000
2002
0000
3003
0000
0001
0000
0010
0000
0100
0000
1000
0000
0020
0000
0000
0030
1000
0000
0100
0000
0010
,
0000
0001
0000
0010
0000
0010
0000
0010
0000
1000
0000
1000
0000
1000
0000
2000
0000
3000
0000
0010
0000
0100
0000
0010
,
0000
0100
0000
0010
0000
0100
0000
0010
0000
0200
0000
0300
0000
0001
0000
0010
0000
0100
0000
0010
0000
0001
0000
0010
,
0000
0100
0000
0020
0000
0000
0030
0000
0000
0000
0002
0000
0000
0000
0000
0000
0000
0000
0000
0000
0000
0000
2003
0000
,
0000
0000
3020
0000
0000
0230
0000
0000
0302
0000
0000
0203
,
0000
0000
0000
0000
0320
0000
0000
0000
0000
0000
2030
0000
0000
0000
0000
0000
3002
0000
0000
0000
0000
0000
0003
1000
,
0000
0100
0000
0010
0000
0002
0000
0003
0000
1000
0000
1100
0000
1000
0000
1000
0000
2000
0000
0000
3000
0010
0000
0110
,
0000
0010
0000
0010
0000
1000
0000
1000
0000
1000
0000
0011
0000
0001
0000
0001
0000
0102
0000
0000
0003
1000
0000
0011
,
0000
1000
0000
0010
0000
1000
0000
0010
0000
1000
0000
0120
0000
0030
0000
0001
0000
0100
0000
0001
0000
0100
0000
1001
,
0000
0100
0000
0001
0000
1200
0000
0300
0000
0001
0000
0110
0000
0100
0000
0001
0000
0020
0000
0030
0000
1000
0000
1001
,
0000
0010
0000
0001
0000
0010
0000
0100
0000
1000
0000
0210
0000
0000
0300
0001
0000
1010
0000
0010
0000
0100
0000
1001
,
0000
0100
0000
1000
0000
0001
0000
0010
0000
0001
0000
1100
0000
0010
0000
0100
0000
0002
0000
0000
0000
0000
0000
0113
,
0000
0000
0000
0000
2000
0000
3022
0033
0000
0000
0220
0330
0000
0000
2002
0000
0000
0000
0000
0000
0000
0000
0000
0000
,
0000
0000
0000
0000
,
0000
3003
0000
0000
0000
0000
0000
0000
0000
0000
0000
0000
0000
0000
0000
0000
0000
0000
0000
0000
0000
0000
0000
0000
;
